<?xml version="1.0" standalone="no"?>
<!DOCTYPE svg PUBLIC "-//W3C//DTD SVG 1.1//EN" "http://www.w3.org/Graphics/SVG/1.1/DTD/svg11.dtd">
<svg xmlns="http://www.w3.org/2000/svg">
<metadata>Copyright (C) 2022 by original authors @ fontello.com</metadata>
<defs>
<font id="fontello" horiz-adv-x="1000" >
<font-face font-family="fontello" font-weight="400" font-stretch="normal" units-per-em="1000" ascent="850" descent="-150" />
<missing-glyph horiz-adv-x="1000" />
<glyph glyph-name="add" unicode="&#xe800;" d="M500-150a50 50 0 0 0-50 50v900a50 50 0 0 0 100 0v-900a50 50 0 0 0-50-50z m450 450h-900a50 50 0 0 0 0 100h900a50 50 0 0 0 0-100z" horiz-adv-x="1000" />

<glyph glyph-name="analytics-pie" unicode="&#xe801;" d="M565 850a435 435 0 0 0 435-435 46 46 0 0 0-45-45h-390a46 46 0 0 0-45 45v389a46 46 0 0 0 45 46z m341-390a345 345 0 0 1-295 296v-296z m-471 260a46 46 0 0 0 46-45v-344h344a46 46 0 0 0 45-46 435 435 0 1 0-435 435z m341-480h-341a46 46 0 0 0-45 45v341a344 344 0 1 1 386-386z" horiz-adv-x="1000" />

<glyph glyph-name="apple-music" unicode="&#xe802;" d="M997 594a426 426 0 0 1-9 90 209 209 0 0 1-91 129 240 240 0 0 1-78 31 463 463 0 0 1-65 6h-523a420 420 0 0 1-91-16 226 226 0 0 1-121-118 183 183 0 0 1-13-60 242 242 0 0 1-6-47v-531a274 274 0 0 1 22-100 206 206 0 0 1 134-116 314 314 0 0 1 53-9 550 550 0 0 1 71-3h458a459 459 0 0 1 66 3 225 225 0 0 1 96 34 200 200 0 0 1 78 91 379 379 0 0 1 16 56 385 385 0 0 1 6 85c-3 159-3 319-3 475z m-268-166v-237a130 130 0 0 0-9-50 84 84 0 0 0-56-47 210 210 0 0 0-44-7 76 76 0 0 0-81 63 78 78 0 0 0 44 84 178 178 0 0 0 43 13l47 9a27 27 0 0 1 22 22v244c-3 6-6 9-13 9a39 39 0 0 1-18-3l-94-19-153-31h-3c-12-3-15-9-15-21v-332a130 130 0 0 0-10-50 80 80 0 0 0-59-50 210 210 0 0 0-43-6 80 80 0 0 0-35 153 259 259 0 0 0 47 12 160 160 0 0 0 34 6 28 28 0 0 1 25 32v372a28 28 0 0 0 3 15 31 31 0 0 0 22 22 110 110 0 0 0 31 6c32 7 63 13 91 19l93 19c25 6 53 13 81 19a86 86 0 0 0 28 3c13 0 22-6 22-19v-250z" horiz-adv-x="1000" />

<glyph glyph-name="whatsapp" unicode="&#xe803;" d="M500 810c-254 0-460-206-460-460 0-79 21-157 59-226l-58-209c-2-7 0-14 5-19 4-4 9-6 14-6 2 0 3 0 5 0l218 54c66-35 141-54 217-54 254 0 460 206 460 460 0 254-206 460-460 460z m231-622c-9-27-57-52-79-56-21-3-46-4-75 5-17 5-39 13-67 24-118 51-196 169-202 177-6 7-48 63-48 120 0 58 31 86 41 97 11 12 24 15 32 15 8 0 16 0 23 0 7-1 17 2 26-20 10-24 34-81 36-87 3-6 5-13 2-20-4-8-6-13-12-20-6-7-13-15-18-20-6-6-12-12-5-24 7-12 30-50 66-81 45-40 83-52 94-58 12-6 19-5 26 3 7 8 30 34 37 46 8 12 16 10 27 6 11-4 69-32 81-38 11-6 19-9 22-14 3-5 3-28-7-55z m0 0" horiz-adv-x="1000" />

<glyph glyph-name="instagram" unicode="&#xe804;" d="M656 746l-312 0c-132 0-240-108-240-240l0-312c0-132 108-240 240-240l312 0c132 0 240 108 240 240l0 312c0 132-108 240-240 240z m-156-604c-115 0-208 93-208 208 0 115 93 208 208 208 115 0 208-93 208-208 0-115-93-208-208-208z m208 375c-23 0-41 18-41 41 0 23 18 42 41 42 23 0 42-19 42-42 0-23-19-41-42-41z m0 0m-62-167c0-80-65-146-146-146-80 0-146 66-146 146 0 81 66 146 146 146 81 0 146-65 146-146z m0 0" horiz-adv-x="1000" />

<glyph glyph-name="apple-podcast" unicode="&#xe805;" d="M921-100a219 219 0 0 1 62 84 357 357 0 0 1 21 138v452a367 367 0 0 1-21 142 183 183 0 0 1-62 84 193 193 0 0 1-72 38 491 491 0 0 1-121 12h-452a361 361 0 0 1-121-12 226 226 0 0 1-71-38 219 219 0 0 1-63-84 366 366 0 0 1-21-142v-448a366 366 0 0 1 21-142 183 183 0 0 1 63-84 193 193 0 0 1 71-38 491 491 0 0 1 122-12h451a491 491 0 0 1 122 12 226 226 0 0 1 71 38z m-413 398a98 98 0 0 0 71-25h0a204 204 0 0 0 13-30 224 224 0 0 0 0-75 618 618 0 0 0-13-113 327 327 0 0 0-12-59 56 56 0 0 0-59-33 56 56 0 0 0-58 33 327 327 0 0 0-13 59h0c-4 42-8 84-12 113 0 12-1 23-1 32a184 184 0 0 0 1 44 38 38 0 0 0 12 29 92 92 0 0 0 71 25z m0 29a84 84 0 0 0-83 84 81 81 0 0 0 83 84 84 84 0 0 0 0-168z m-355 63a353 353 0 0 0 351 347 345 345 0 0 0 347-351 353 353 0 0 0-234-331c0-4-4 0-4 4a115 115 0 0 0 2 19 116 116 0 0 1 2 19 9 9 0 0 0 8 8 304 304 0 0 1 185 281 308 308 0 1 1-431-285 9 9 0 0 0 8-8 115 115 0 0 1 2-19 115 115 0 0 0 2-19c4-4 0-4-4-4a359 359 0 0 0-234 339z m544-8a190 190 0 0 1-197 192 177 177 0 0 1-176-188 184 184 0 0 1 59-142 15 15 0 0 0 4-13v-42c0-4-4-8-9-4a236 236 0 1 0 264 0c-4-4-8 0-8 4v42a15 15 0 0 0 4 13 200 200 0 0 1 59 137z" horiz-adv-x="1004" />

<glyph glyph-name="apple" unicode="&#xe806;" d="M453 763a216 216 0 0 0 158 87 213 213 0 0 0-52-160 171 171 0 0 0-150-70 185 185 0 0 0 44 143z m-36-200c34 0 97 47 180 47a225 225 0 0 0 197-100 217 217 0 0 1-109-190 223 223 0 0 1 136-203s-95-266-223-266c-59 0-105 40-167 40-63 0-126-41-166-41-117 0-265 251-265 454 0 198 125 303 243 303 76 0 135-44 175-44z" horiz-adv-x="821" />

<glyph glyph-name="arrow-external-left" unicode="&#xe807;" d="M944-150a56 56 0 0 0-39 16l-889 889a56 56 0 1 0 79 79l889-889a56 56 0 0 0-40-95z m-888 51a56 56 0 0 0-56 55v838a56 56 0 0 0 56 56h838a56 56 0 0 0 0-111h-783v-783a56 56 0 0 0-55-55z" horiz-adv-x="1000" />

<glyph glyph-name="arrow-external-right" unicode="&#xe808;" d="M56-150a56 56 0 0 0-40 95l889 889a56 56 0 0 0 79-79l-889-889a56 56 0 0 0-39-16z m888 51a56 56 0 0 0-55 55v783h-783a56 56 0 0 0 0 111h838a56 56 0 0 0 56-56v-838a56 56 0 0 0-56-55z" horiz-adv-x="1000" />

<glyph glyph-name="arrow-left" unicode="&#xe809;" d="M500-150a53 53 0 0 0-37 15l-447 448a53 53 0 0 0 0 75l447 447a53 53 0 0 0 74-75l-409-410 409-410a53 53 0 0 0-37-90z m504 447h-951a53 53 0 0 0 0 106h951a53 53 0 0 0 0-106z" horiz-adv-x="1057" />

<glyph glyph-name="arrow-right" unicode="&#xe80a;" d="M557-150a53 53 0 0 0-37 90l409 410-409 410a53 53 0 0 0 74 75l448-448a53 53 0 0 0 0-74l-448-448a53 53 0 0 0-37-15z m447 447h-951a53 53 0 0 0 0 106h951a53 53 0 0 0 0-106z" horiz-adv-x="1057" />

<glyph glyph-name="badge" unicode="&#xe80b;" d="M258-150a46 46 0 0 0-43 31l-53 157-126 25a46 46 0 0 0-26 73l164 201a46 46 0 1 0 71-58l-116-142 77-15a46 46 0 0 0 34-30l30-91 109 172a46 46 0 1 0 76-49l-159-253a46 46 0 0 0-38-21z m484 0a46 46 0 0 0-38 21l-159 253a46 46 0 0 0 77 49l108-172 30 91a46 46 0 0 0 34 30l77 16-115 141a46 46 0 1 0 70 58l164-201a46 46 0 0 0-26-73l-126-25-52-157a46 46 0 0 0-43-31z m-242 242a379 379 0 0 0-268 647 379 379 0 1 0 536-536 376 376 0 0 0-268-111z m0 667a288 288 0 1 1 204-84 286 286 0 0 1-204 84z" horiz-adv-x="1000" />

<glyph glyph-name="behance" unicode="&#xe80c;" d="M637 403a170 170 0 0 1 150 186c0 176-123 261-277 261h-510v-979h510s311-10 311 289c0 0 13 243-184 243z m-164 273h37s69 0 69-102-41-117-87-117h-267v219z m22-631h-270v262h285s103 1 103-135c0-114-77-126-118-127z m740 556c-376 0-376-377-376-377a347 347 0 0 1 376-374s336-19 336 260h-173s6-105-157-105a159 159 0 0 0-172 170h507s56 426-341 426z m-168-295a175 175 0 0 0 172 151 146 146 0 0 0 150-151z m362 365h-404v121h404z" horiz-adv-x="1579" />

<glyph glyph-name="bell" unicode="&#xe80d;" d="M410-150a130 130 0 0 0-124 93 46 46 0 1 0 87 26 39 39 0 0 1 74 0 46 46 0 1 0 88-26 130 130 0 0 0-125-93z m0 818a46 46 0 0 0-45 46v90a46 46 0 1 0 91 0v-90a46 46 0 0 0-46-46z m0 91a349 349 0 0 0 349-349c0-234 42-295 46-300a46 46 0 0 0-31-78h-728a46 46 0 0 0-42 25 44 44 0 0 0 6 48c4 6 51 84 51 306a349 349 0 0 0 349 348z m290-636a974 974 0 0 0-32 288 258 258 0 1 1-515 0 945 945 0 0 0-37-288z" horiz-adv-x="819" />

<glyph glyph-name="bin" unicode="&#xe80e;" d="M801-150h-527a124 124 0 0 0-124 124v677a49 49 0 0 0 49 49h677a49 49 0 0 0 49-49v-677a124 124 0 0 0-124-124z m-553 752v-628a26 26 0 0 1 26-26h527a26 26 0 0 1 26 26v628z m177-526a49 49 0 0 0-49 48v301a49 49 0 0 0 98 0v-301a49 49 0 0 0-49-48z m225 0a49 49 0 0 0-48 48v301a49 49 0 0 0 97 0v-301a49 49 0 0 0-49-48z m376 526h-977a49 49 0 0 0 0 98h977a49 49 0 0 0 0-98z m-601 248h225a124 124 0 0 0 124-124v-75a49 49 0 0 0-48-49h-376a49 49 0 0 0-49 49v75a124 124 0 0 0 124 124z m252-150v26a26 26 0 0 1-27 26h-225a26 26 0 0 1-26-26v-26z" horiz-adv-x="1075" />

<glyph glyph-name="bookmark" unicode="&#xe80f;" d="M513-150h-2a77 77 0 0 0-39 12l-177 110-178-110a77 77 0 0 0-117 64v692a232 232 0 0 0 232 232h374a232 232 0 0 0 232-232v-156a77 77 0 0 0-76-76h-173v-460a77 77 0 0 0-76-76z m-218 222a46 46 0 0 0 24-7l179-113v666a108 108 0 0 0 108 108 46 46 0 0 0 0-91 17 17 0 0 1-17-17v-142h158v142a141 141 0 0 1-141 141h-374a141 141 0 0 1-141-141v-665l180 112a46 46 0 0 0 24 7z" horiz-adv-x="838" />

<glyph glyph-name="briefcase" unicode="&#xe810;" d="M121 643h896a121 121 0 0 0 121-121v-551a121 121 0 0 0-121-121h-896a121 121 0 0 0-121 121v551a121 121 0 0 0 121 121z m896-690a17 17 0 0 1 18 18v551a17 17 0 0 1-18 18h-896a17 17 0 0 1-17-18v-551a17 17 0 0 1 17-18z m-241 587a52 52 0 0 0-52 51 155 155 0 1 1-310 0 52 52 0 0 0-104 0 259 259 0 0 0 518 0 52 52 0 0 0-52-51z" horiz-adv-x="1138" />

<glyph glyph-name="calendar" unicode="&#xe811;" d="M106 729h788a106 106 0 0 0 106-106v-667a106 106 0 0 0-106-106h-788a106 106 0 0 0-106 106v667a106 106 0 0 0 106 106z m788-788a15 15 0 0 1 15 15v667a15 15 0 0 1-15 15h-788a15 15 0 0 1-15-15v-667a15 15 0 0 1 15-15z m61 454h-909a46 46 0 0 0 0 91h909a46 46 0 0 0 0-91z m-667 152a46 46 0 0 0-46 45v212a46 46 0 1 0 91 0v-212a46 46 0 0 0-45-45z m424 0a46 46 0 0 0-45 45v212a46 46 0 1 0 91 0v-212a46 46 0 0 0-46-45z" horiz-adv-x="1000" />

<glyph glyph-name="camera" unicode="&#xe812;" d="M722 628a315 315 0 1 0-120-24 313 313 0 0 0 120 24z m0-519a204 204 0 1 1-78 16 203 203 0 0 1 78-16z m-139 741h279a130 130 0 0 0 116-72l38-76h77a130 130 0 0 0 129-130v-592a130 130 0 0 0-129-130h-963a130 130 0 0 0-130 130v592a130 130 0 0 0 130 130h299l38 76a130 130 0 0 0 116 72z m510-889a19 19 0 0 1 18 19v592a19 19 0 0 1-18 19h-111a56 56 0 0 0-50 31l-54 107a19 19 0 0 1-16 10h-279a19 19 0 0 1-17-10l-53-107a56 56 0 0 0-50-31h-333a19 19 0 0 1-19-19v-592a19 19 0 0 1 19-19z m-865 537a37 37 0 1 0-26-11 37 37 0 0 0 26 11z m0 56a93 93 0 1 0-65-27 92 92 0 0 0 65 27z m50 37a56 56 0 0 0-56 55v74a56 56 0 0 0 111 0v-74a56 56 0 0 0-55-55z" horiz-adv-x="1222" />

<glyph glyph-name="care" unicode="&#xe813;" d="M500 107a27 27 0 1 1 19-8 27 27 0 0 1-19 8z m0 45a72 72 0 1 0-40-12 72 72 0 0 0 40 12z m0 32a46 46 0 0 0-45 45v303a46 46 0 1 0 91 0v-303a46 46 0 0 0-46-45z m0 666a118 118 0 0 0 106-66l383-780a107 107 0 0 0-96-154h-786a107 107 0 0 0-96 154l383 780a118 118 0 0 0 106 66z m393-909a16 16 0 0 1 15 23l-383 780a27 27 0 0 1-10 11 28 28 0 0 1-29 0 27 27 0 0 1-11-11l-382-780a16 16 0 0 1 14-23z" horiz-adv-x="1000" />

<glyph glyph-name="check" unicode="&#xe814;" d="M413-150a62 62 0 0 0-45 18l-350 350a62 62 0 1 0 88 88l307-306 831 832a62 62 0 0 0 88-88l-875-876a62 62 0 0 0-44-18z" horiz-adv-x="1350" />

<glyph glyph-name="chevron-down" unicode="&#xe815;" d="M889-150a111 111 0 0 0-79 32l-777 778a111 111 0 0 0 157 157l699-699 699 699a111 111 0 0 0 157-156l-778-778a111 111 0 0 0-78-33z" horiz-adv-x="1778" />

<glyph glyph-name="chevron-left" unicode="&#xe816;" d="M500-150a50 50 0 0 0-35 14l-450 451a50 50 0 0 0 0 70l450 450a50 50 0 0 0 70-70l-414-415 414-415a50 50 0 0 0-35-85z" horiz-adv-x="550" />

<glyph glyph-name="chevron-right" unicode="&#xe817;" d="M50-150a50 50 0 0 0-35 85l414 415-414 415a50 50 0 1 0 70 70l450-450a50 50 0 0 0 0-70l-450-450a50 50 0 0 0-35-15z" horiz-adv-x="550" />

<glyph glyph-name="chevron-up" unicode="&#xe818;" d="M1667-150a111 111 0 0 0-79 32l-699 700-699-699a111 111 0 1 0-157 157l777 778a111 111 0 0 0 157 0l778-778a111 111 0 0 0-78-190z" horiz-adv-x="1778" />

<glyph glyph-name="circle-check" unicode="&#xe819;" d="M404 145a46 46 0 0 0-32 13l-128 128a46 46 0 1 0 64 64l96-96 288 288a46 46 0 1 0 64-64l-320-320a46 46 0 0 0-32-13z m96 705a500 500 0 1 0-191-38 498 498 0 0 0 191 38z m0-909a409 409 0 1 1-289 120 406 406 0 0 1 289-120z" horiz-adv-x="1000" />

<glyph glyph-name="clock" unicode="&#xe81a;" d="M500 850a500 500 0 1 0-191-38 498 498 0 0 0 191 38z m0-909a409 409 0 1 1-289 120 406 406 0 0 1 289-120z m0 363a46 46 0 0 0-45 46v162a46 46 0 0 0 91 0v-162a46 46 0 0 0-46-46z m203-202a46 46 0 0 0-32 13l-203 203a46 46 0 1 0 64 64l203-203a46 46 0 0 0-32-77z" horiz-adv-x="1000" />

<glyph glyph-name="close" unicode="&#xe81b;" d="M50-150a50 50 0 0 0-35 85l900 900a50 50 0 0 0 70-70l-900-900a50 50 0 0 0-35-15z m900 0a50 50 0 0 0-35 14l-900 901a50 50 0 0 0 70 70l900-900a50 50 0 0 0-35-85z" horiz-adv-x="1000" />

<glyph glyph-name="code" unicode="&#xe81c;" d="M412 26a60 60 0 0 0-36 12l-352 264a60 60 0 0 0 0 96l352 264a60 60 0 0 0 72-96l-288-216 288-216a60 60 0 0 0-36-108z m613 0a60 60 0 0 0-36 108l288 216-288 216a60 60 0 0 0 72 96l352-264a60 60 0 0 0 0-96l-352-264a60 60 0 0 0-36-12z m-395-176a60 60 0 0 0-58 72l176 880a60 60 0 0 0 117-24l-176-880a60 60 0 0 0-59-48z" horiz-adv-x="1437" />

<glyph glyph-name="cog" unicode="&#xe81d;" d="M656 850a125 125 0 0 0 124-131l-3-56a34 34 0 0 1 36-36l56 3c2 0 4 0 6 0a125 125 0 0 0 84-217l-42-38a34 34 0 0 1 0-50l42-38a125 125 0 0 0-83-217c-2 0-5 0-7 0l-56 3h-2a34 34 0 0 1-34-36l3-56v-1a125 125 0 0 0-216-89l0 0-38 42a34 34 0 0 1-50 0l-39-42a125 125 0 0 0-216 89v0l3 57a34 34 0 0 1-36 35l-57-2c-2 0-4 0-6 0a125 125 0 0 0-84 217l42 38a34 34 0 0 1 0 50l-42 38a125 125 0 0 0 90 217l56-3h2a34 34 0 0 1 34 36v0l-3 56a125 125 0 0 0 217 90l38-42a34 34 0 0 1 50 0l0 0 38 42a125 125 0 0 0 93 41z m155-314a125 125 0 0 0-124 131l3 57a34 34 0 0 1-59 24l-38-42a125 125 0 0 0-185 0l-38 42a34 34 0 0 1-59-24l3-57a125 125 0 0 0-131-131l-57 3h-1a34 34 0 0 1-23-59l42-38a125 125 0 0 0 0-185l-42-38a34 34 0 0 1 24-58l57 3c2 0 4 0 7 0a125 125 0 0 0 124-131l-3-57a34 34 0 0 1 59-24l38 42a125 125 0 0 0 185 0l38-42a34 34 0 0 1 58 24l-3 57a125 125 0 0 0 131 131l57-3a34 34 0 0 1 24 58l-42 38a125 125 0 0 0 0 186l42 38a34 34 0 0 1-24 58l-57-3c-2 0-4 0-6 0z m-311-413a227 227 0 1 0 227 227 228 228 0 0 0-227-227z m0 363a136 136 0 1 1 136-136 137 137 0 0 1-136 136z" horiz-adv-x="1000" />

<glyph glyph-name="coin" unicode="&#xe81e;" d="M500-150a500 500 0 1 0 191 38 498 498 0 0 0-191-38z m0 909a409 409 0 1 1 289-120 406 406 0 0 1-289 120z m0-636a136 136 0 0 0-136 136 46 46 0 0 0 91 0 46 46 0 1 1 45 46 136 136 0 1 0 136 136 46 46 0 0 0-90 0 46 46 0 1 1-46-45 136 136 0 0 0 0-273z m0 363a46 46 0 0 0-45 46v61a46 46 0 0 0 91 0v-61a46 46 0 0 0-46-46z m0-424a46 46 0 0 0-45 46v60a46 46 0 0 0 91 0v-60a46 46 0 0 0-46-46z" horiz-adv-x="1000" />

<glyph glyph-name="credit-card" unicode="&#xe81f;" d="M206 850h882a206 206 0 0 0 206-206v-588a206 206 0 0 0-206-206h-882a206 206 0 0 0-206 206v588a206 206 0 0 0 206 206z m882-883a88 88 0 0 1 89 89v588a88 88 0 0 1-89 88h-882a88 88 0 0 1-88-88v-588a88 88 0 0 1 88-89z m147 471h-1176a59 59 0 0 0 0 118h1176a59 59 0 0 0 0-118z m-294-294h-147a59 59 0 1 0 0 118h147a59 59 0 1 0 0-118z" horiz-adv-x="1294" />

<glyph glyph-name="desktop" unicode="&#xe820;" d="M136 850h728a136 136 0 0 0 136-136v-546a136 136 0 0 0-136-136h-728a136 136 0 0 0-136 136v546a136 136 0 0 0 136 136z m728-727a46 46 0 0 1 45 45v546a46 46 0 0 1-45 45h-728a46 46 0 0 1-45-45v-546a46 46 0 0 1 45-45z m-364-273a46 46 0 0 0-45 45v182a46 46 0 0 0 91 0v-182a46 46 0 0 0-46-45z m182 0h-364a46 46 0 0 0 0 91h364a46 46 0 0 0 0-91z" horiz-adv-x="1000" />

<glyph glyph-name="discord" unicode="&#xe821;" d="M1113 766a1100 1100 0 0 0 194-747 4 4 0 0 0-2-3 1085 1085 0 0 0-328-166 4 4 0 0 0-5 2 876 876 0 0 0-67 109 4 4 0 0 0 2 5 671 671 0 0 1 103 49 4 4 0 0 1 0 7c-7 5-14 11-20 16a4 4 0 0 1-5 1 776 776 0 0 0-659 0 4 4 0 0 1-5-1c-6-6-13-11-20-16a4 4 0 0 1 0-7 715 715 0 0 1 103-49 4 4 0 0 0 2-5 779 779 0 0 0-67-109 4 4 0 0 0-5-2 1089 1089 0 0 0-327 166 5 5 0 0 0-2 3 1107 1107 0 0 0 194 747 4 4 0 0 0 2 1 1080 1080 0 0 0 267 83 4 4 0 0 0 5-2 693 693 0 0 0 33-68 1000 1000 0 0 0 300 0 756 756 0 0 0 33 68 4 4 0 0 0 5 2 1082 1082 0 0 0 267-83 3 3 0 0 0 2-1z m-556-466a125 125 0 0 1-118 132 125 125 0 0 1-118-132 126 126 0 0 1 118-132 125 125 0 0 1 118 132z m436 0a125 125 0 0 1-118 132 125 125 0 0 1-119-132 126 126 0 0 1 119-132 125 125 0 0 1 118 132z" horiz-adv-x="1312" />

<glyph glyph-name="dollar" unicode="&#xe822;" d="M148 850h1144a148 148 0 0 0 148-148v-704a148 148 0 0 0-148-148h-1144a148 148 0 0 0-148 148v704a148 148 0 0 0 148 148z m1144-880a28 28 0 0 1 28 28v704a28 28 0 0 1-28 28h-1144a28 28 0 0 1-28-28v-704a28 28 0 0 1 28-28z m-582 145a236 236 0 1 0 236 236 236 236 0 0 0-236-236z m0 352a116 116 0 1 1 116-116 116 116 0 0 1-116 116z" horiz-adv-x="1440" />

<glyph glyph-name="dribbble" unicode="&#xe823;" d="M126 20a483 483 0 0 0-126 330q0 5 1 12t0 12q23-1 70-1a1457 1457 0 0 1 446 66q17-34 35-76a596 596 0 0 1-244-128 686 686 0 0 1-182-215z m-32 451q-52 0-78 3a512 512 0 0 0 95 188 487 487 0 0 0 162 133 1214 1214 0 0 0 201-270 1316 1316 0 0 0-380-54z m406-621a485 485 0 0 0-306 105 680 680 0 0 0 166 204 511 511 0 0 0 223 121 1761 1761 0 0 0 93-396 489 489 0 0 0-176-34z m73 711a1274 1274 0 0 1-195 272 460 460 0 0 0 122 17 486 486 0 0 0 319-115 597 597 0 0 0-246-174z m84-182q-23 59-41 97a593 593 0 0 1 264 198 481 481 0 0 0 118-290q-73 3-148 3-104 0-193-8z m113-449a1721 1721 0 0 1-83 365q84 6 150 6 72 0 159-6a484 484 0 0 0-71-208 500 500 0 0 0-155-157z" horiz-adv-x="998" />

<glyph glyph-name="email" unicode="&#xe824;" d="M1088-150h-882a206 206 0 0 0-206 206v588a59 59 0 0 0 118 0v-588a88 88 0 0 1 88-88h882a88 88 0 0 1 89 88v588a59 59 0 0 0 117 0v-588a206 206 0 0 0-206-206z m-882 1000h882a206 206 0 0 0 206-206 59 59 0 0 0-27-50l-511-318a206 206 0 0 0-218 0l-510 318a59 59 0 0 0-28 50 206 206 0 0 0 206 206z m966-176a88 88 0 0 1-84 58h-882a88 88 0 0 1-83-58l477-298a88 88 0 0 1 94 0z" horiz-adv-x="1294" />

<glyph glyph-name="eye" unicode="&#xe825;" d="M724 850a566 566 0 0 0 140-18 866 866 0 0 0 295-145 1295 1295 0 0 0 236-224l1-1a181 181 0 0 0 0-224l-1-1a1301 1301 0 0 0-234-223 862 862 0 0 0-297-147 567 567 0 0 0-147-17 568 568 0 0 0-146 17 863 863 0 0 0-298 147 1307 1307 0 0 0-233 223l-1 1a181 181 0 0 0 0 224l1 1a1295 1295 0 0 0 235 224 865 865 0 0 0 296 145 564 564 0 0 0 146 18z m570-469a946 946 0 0 1-462 325h0a435 435 0 0 1-113 13h-2a434 434 0 0 1-114-13h0a946 946 0 0 1-462-325 51 51 0 0 1 0-62 948 948 0 0 1 462-325 437 437 0 0 1 114-14h1a437 437 0 0 1 114 14h0a944 944 0 0 1 462 325 51 51 0 0 1 0 62z m-577 177a192 192 0 1 0-192-192 192 192 0 0 0 192 192z m0-253a62 62 0 1 1-61 61 62 62 0 0 1 61-61z" horiz-adv-x="1435" />

<glyph glyph-name="facebook" unicode="&#xe826;" d="M354-150v456h161l24 178h-185v113c0 52 15 87 93 87h99v159a1389 1389 0 0 1-144 7c-143 0-241-83-241-235v-131h-161v-178h161v-456h193z" horiz-adv-x="545" />

<glyph glyph-name="fax" unicode="&#xe827;" d="M374 850h69a190 190 0 0 0 189-189v-621a190 190 0 0 0-189-190h-69a190 190 0 0 0-190 190v621a190 190 0 0 0 190 189z m69-897a86 86 0 0 1 86 87v621a86 86 0 0 1-86 86h-69a86 86 0 0 1-87-86v-621a86 86 0 0 1 87-86z m-189-34h-64a190 190 0 0 0-190 190v482a190 190 0 0 0 190 190h64a52 52 0 0 0 0-103h-64a86 86 0 0 1-86-87v-482a86 86 0 0 1 86-87h64a52 52 0 0 0 0-103z m694 0h-386a52 52 0 0 0 0 103h386a86 86 0 0 1 87 87v482a86 86 0 0 1-87 87h-386a52 52 0 0 0 0 103h386a190 190 0 0 0 190-190v-482a190 190 0 0 0-190-190z m-11 598h-207a52 52 0 0 0 0 103h207a52 52 0 0 0 0-103z" horiz-adv-x="1138" />

<glyph glyph-name="filter" unicode="&#xe828;" d="M78 850h877a78 78 0 0 0 79-83v-1a521 521 0 0 0-128-305 522 522 0 0 0-248-156v-272a78 78 0 0 0-28-60l-126-105a78 78 0 0 0-40-17 79 79 0 0 0-43 6 78 78 0 0 0-45 71v377a522 522 0 0 0-248 157 521 521 0 0 0-128 304 78 78 0 0 0 78 84z m860-94h-842a424 424 0 0 1 336-368 47 47 0 0 0 38-46v-380l94 78v302a47 47 0 0 0 38 46 424 424 0 0 1 336 368z" horiz-adv-x="1034" />

<glyph glyph-name="flag" unicode="&#xe829;" d="M46-150a46 46 0 0 0-46 45v910a46 46 0 0 0 91 0v-910a46 46 0 0 0-45-45z m757 303h-757a46 46 0 0 0 0 91h742v455h-742a46 46 0 0 0 0 90h757a76 76 0 0 0 76-75v-485a76 76 0 0 0-76-76z" horiz-adv-x="879" />

<glyph glyph-name="folder" unicode="&#xe82a;" d="M134 850h203a134 134 0 0 0 108-54l81-108h502a134 134 0 0 0 135-135v-569a134 134 0 0 0-134-134h-895a134 134 0 0 0-134 134v732a134 134 0 0 0 134 134z m895-894a28 28 0 0 1 28 28v569a28 28 0 0 1-28 29h-529a53 53 0 0 0-42 21l-98 130a28 28 0 0 1-23 11h-203a28 28 0 0 1-28-28v-732a28 28 0 0 1 28-28z" horiz-adv-x="1163" />

<glyph glyph-name="github" unicode="&#xe82b;" d="M513 850a513 513 0 0 1-162-999c25-5 35 11 35 25 0 12-1 52-1 95-143-31-173 61-173 61a136 136 0 0 1-57 75c-46 31 4 31 4 31a108 108 0 0 0 78-53 109 109 0 0 1 149-43 109 109 0 0 0 33 69c-114 13-234 57-234 253a198 198 0 0 0 53 138 185 185 0 0 0 5 135s43 14 141-52a486 486 0 0 0 257 0c98 66 141 52 141 52a184 184 0 0 0 5-135 198 198 0 0 0 53-138c0-197-120-240-234-253a123 123 0 0 0 34-95c0-68 0-124 0-141 0-13 9-29 35-24a513 513 0 0 1-162 999z m-321-730c-1-3-5-4-9-2s-6 5-4 8 5 3 8 2 6-6 5-8z m25-23c-2-2-7-1-10 3a8 8 0 0 0-2 10c3 3 7 1 11-2s4-8 1-11z m18-29c-4-2-9 0-12 5s-3 10 0 12 8 0 12-4 3-10 0-12z m29-33c-3-3-9-2-13 2s-6 10-3 13 9 2 13-2 6-10 3-13z m38-11c-2-4-7-6-13-4s-10 6-9 10 7 6 13 4 10-6 9-10z m43-5c0-4-5-7-11-8s-11 4-11 8 4 8 11 8 11-3 11-8z m42 2c1-4-4-8-10-10s-11 2-12 6 4 8 10 9 11-1 12-5" horiz-adv-x="1025" />

<glyph glyph-name="googe" unicode="&#xe82c;" d="M219 447a297 297 0 0 1 431-354h0a298 298 0 0 1 129 153h-268v198h480a500 500 0 1 0-172 291l-162-133a297 297 0 0 1-438-155z" horiz-adv-x="1000" />

<glyph glyph-name="google-play" unicode="&#xe82d;" d="M25-136l454 437 161-154-541-289a69 69 0 0 0-66 1c0-1-8 5-8 5z m409 482l-434-418v835z m270 172l212-113a61 61 0 0 0 0-110l-217-116-174 167c0 0 179 172 179 172z m-684 314a81 81 0 0 0 13 9 69 69 0 0 0 66 1l546-292-166-160z" horiz-adv-x="950" />

<glyph glyph-name="google-podcast" unicode="&#xe82e;" d="M125 384v-68a63 63 0 0 0-125 0v68a63 63 0 0 0 125 0z m750-2c0 1 0 2 0 2a63 63 0 0 0 125 0c0 0 0-1 0-2h0v-68h0a63 63 0 0 0-125 0h0v68z m-534-202v-69a63 63 0 0 0-125 0v69a63 63 0 1 0 125 0z m0 409v-223h0a63 63 0 0 0-125 0h0v223a63 63 0 0 0 125 0z m318-68a63 63 0 1 1 125 0v68a63 63 0 1 1-125 0z m-221 198a63 63 0 1 1 125 0v69a63 63 0 1 1-125 0z m0-738a63 63 0 1 0 125 0v-69a63 63 0 1 0-125 0z m221 352a63 63 0 0 0 125 0v-222a63 63 0 0 0-125 0z m-97 199v-364a63 63 0 1 0-125 0v364a63 63 0 1 0 125 0z" horiz-adv-x="1000" />

<glyph glyph-name="graph-ascend" unicode="&#xe82f;" d="M1675 224a73 73 0 0 0-73 73v407h-408a73 73 0 1 0 0 146h481a73 73 0 0 0 73-73v-480a73 73 0 0 0-73-73z m-1602-374a73 73 0 0 0-52 124l512 512a180 180 0 0 0 254 0l223-223a34 34 0 0 1 48 0l565 566a73 73 0 1 0 103-103l-565-566a180 180 0 0 0-254 0l-222 223a34 34 0 0 1-49 0l-512-512a73 73 0 0 0-51-21z" horiz-adv-x="1748" />

<glyph glyph-name="graph-descend" unicode="&#xe830;" d="M1658-150h-474a79 79 0 1 0 0 158h395v395a79 79 0 1 0 158 0v-474a79 79 0 0 0-79-79z m0 0a79 79 0 0 0-56 23l-557 557a26 26 0 0 1-37 0l-220-219a184 184 0 0 0-260 0l-505 504a79 79 0 1 0 112 112l504-505a26 26 0 0 1 38 0l219 220a184 184 0 0 0 261 0l557-557a79 79 0 0 0-56-135z" horiz-adv-x="1737" />

<glyph glyph-name="graph" unicode="&#xe831;" d="M997-150h-951a46 46 0 0 0 0 91h951a46 46 0 0 0 0-91z m-885 556h127a77 77 0 0 0 77-77v-434a46 46 0 0 0-45-45h-190a46 46 0 0 0-46 45v434a77 77 0 0 0 77 77z m113-91h-99v-374h99z m233 535h127a77 77 0 0 0 77-77v-878a46 46 0 0 0-45-45h-191a46 46 0 0 0-45 45v878a77 77 0 0 0 77 77z m113-91h-99v-818h99z m232-99h127a77 77 0 0 0 78-77v-688a46 46 0 0 0-46-45h-190a46 46 0 0 0-46 45v688a77 77 0 0 0 77 77z m113-91h-99v-628h99z" horiz-adv-x="1042" />

<glyph glyph-name="heart" unicode="&#xe832;" d="M564-150a51 51 0 0 0-37 16l-436 455a310 310 0 0 0-58 358 310 310 0 0 0 496 80l35-35 35 35a310 310 0 0 0 497-80 310 310 0 0 0-58-357l-437-456a51 51 0 0 0-37-16z m-254 897a207 207 0 0 1-147-353l1-1 400-418 400 418 1 1a207 207 0 0 1 39 239 207 207 0 0 1-332 54l-71-72a51 51 0 0 0-73 0l-71 72a207 207 0 0 1-147 60z" horiz-adv-x="1128" />

<glyph glyph-name="home" unicode="&#xe833;" d="M500 850a46 46 0 0 0 27-9l439-331a46 46 0 0 0 4-3 93 93 0 0 0 30-63q0-2 0-3v-506a85 85 0 0 0-85-85h-264a46 46 0 0 0-45 45v213a106 106 0 0 1-212 0v-212a46 46 0 0 0-46-46h-263a85 85 0 0 0-85 85v506q0 1 0 3a93 93 0 0 0 30 63q1 1 3 3l440 331a46 46 0 0 0 27 9z m409-411l-409 309-409-309 0 0v-498h212v167a197 197 0 0 0 394 0v-167h212v498z" horiz-adv-x="1000" />

<glyph glyph-name="info" unicode="&#xe834;" d="M500-150a500 500 0 0 0-353 854 500 500 0 1 0 707-708 497 497 0 0 0-354-146z m0 909a409 409 0 1 1 409-409 410 410 0 0 1-409 409z m0-682a46 46 0 0 0-45 46v227a46 46 0 0 0 91 0v-227a46 46 0 0 0-46-46z m0 485a26 26 0 1 1 10-2 26 26 0 0 1-10 2z m0 46h0a71 71 0 1 0-39-12 71 71 0 0 0 39 12z" horiz-adv-x="1000" />

<glyph glyph-name="database" unicode="&#xe835;" d="M500 396a941 941 0 0 0-338 56c-105 42-162 102-162 171s57 129 162 171a941 941 0 0 0 338 56 941 941 0 0 0 338-56c105-42 162-103 162-171s-57-129-162-171a941 941 0 0 0-338-56z m0 363a849 849 0 0 1-304-50c-64-25-105-59-105-86s41-61 105-87a849 849 0 0 1 304-50 849 849 0 0 1 305 50c63 26 104 60 104 87s-41 61-104 86a849 849 0 0 1-305 50z m0-636a941 941 0 0 0-338 56c-105 42-162 103-162 171v273a46 46 0 0 0 91 0v-273c0-27 41-61 105-86a849 849 0 0 1 304-50 849 849 0 0 1 305 50c63 25 104 59 104 86v273a46 46 0 0 0 91 0v-273c0-68-57-129-162-171a941 941 0 0 0-338-56z m0-273a941 941 0 0 0-338 56c-105 42-162 103-162 171v273a46 46 0 0 0 91 0v-273c0-27 41-61 105-86a849 849 0 0 1 304-50 849 849 0 0 1 305 50c63 25 104 59 104 86v273a46 46 0 1 0 91 0v-273c0-68-57-129-162-171a941 941 0 0 0-338-56z" horiz-adv-x="1000" />

<glyph glyph-name="laptop" unicode="&#xe836;" d="M1056 183h-889a56 56 0 0 0-56 56v481a130 130 0 0 0 130 130h741a130 130 0 0 0 129-130v-481a56 56 0 0 0-55-56z m-834 112h778v425a19 19 0 0 1-18 19h-741a19 19 0 0 1-19-19z m871-445h-963a130 130 0 0 0-119 182l0 1 105 229a56 56 0 0 0 51 33h889a56 56 0 0 0 50-33l105-229 0-1a130 130 0 0 0-119-182z m-980 137a19 19 0 0 1 17-26h963a19 19 0 0 1 17 26l-90 196h-818z m572 11h-148a56 56 0 0 0 0 111h148a56 56 0 0 0 0-111z" horiz-adv-x="1222" />

<glyph glyph-name="design-tools" unicode="&#xe837;" d="M167-150a167 167 0 0 0-167 167v554a168 168 0 0 0 18 75l81 161a76 76 0 0 0 135 0l81-162a167 167 0 0 0 18-74v-555a167 167 0 0 0-166-166z m-1 889l-67-134a76 76 0 0 1-8-34v-554a75 75 0 1 1 151 0v554a76 76 0 0 1-8 34z m122-212h-242a46 46 0 0 0 0 91h242a46 46 0 0 0 0-91z m0-485h-242a46 46 0 0 0 0 91h242a46 46 0 0 0 0-91z m242 808h243a106 106 0 0 0 106-106v-788a106 106 0 0 0-106-106h-243a106 106 0 0 0-106 106v788a106 106 0 0 0 106 106z m243-909a15 15 0 0 1 15 15v788a15 15 0 0 1-15 15h-243a15 15 0 0 1-15-15v-788a15 15 0 0 1 15-15z m-162 636h-141a46 46 0 0 0 0 91h141a46 46 0 0 0 0-91z m0-182h-141a46 46 0 0 0 0 91h141a46 46 0 1 0 0-91z m0-181h-141a46 46 0 0 0 0 90h141a46 46 0 0 0 0-90z m0-182h-141a46 46 0 0 0 0 91h141a46 46 0 0 0 0-91z" horiz-adv-x="879" />

<glyph glyph-name="lightning" unicode="&#xe838;" d="M450 850a46 46 0 0 0 45-46v-358h131a71 71 0 0 0 54-117l-398-463a46 46 0 0 0-80 29v359h-131a71 71 0 0 0-54 117l398 463a46 46 0 0 0 35 16z m132-495h-132a46 46 0 0 0-46 45v282l-289-337h132a46 46 0 0 0 46-45v-282z" horiz-adv-x="697" />

<glyph glyph-name="line" unicode="&#xe839;" d="M795 850h-590a205 205 0 0 1-205-205v-590a205 205 0 0 1 205-205h590a205 205 0 0 1 205 205v590a205 205 0 0 1-205 205z m-296-166c203 0 367-131 367-293a251 251 0 0 0-55-155 76 76 0 0 0-7-8l0-1a318 318 0 0 0-39-39c-102-94-269-206-291-189-7 6-4 20-2 36 6 26 12 57-25 65-4 0-8 1-12 1h0c-172 25-303 145-303 290 0 162 164 293 367 293z m-213-387h74a19 19 0 0 1 19 19v2a19 19 0 0 1-19 19h-53v121a19 19 0 0 1-19 19h-2a19 19 0 0 1-19-19v-142a19 19 0 0 1 19-19z m459 89v1a19 19 0 0 1-19 20h-54v30h54a19 19 0 0 1 19 19v2a19 19 0 0 1-19 19h-74a19 19 0 0 1-19-19v-142a19 19 0 0 1 19-19h74a19 19 0 0 1 19 19v1a19 19 0 0 1-19 19h-54v31h54a19 19 0 0 1 19 19z m-143-83h0a19 19 0 0 1 6 13v142a19 19 0 0 1-19 19h-2a19 19 0 0 1-19-19v-83l-69 92a19 19 0 0 1-17 10h-1a19 19 0 0 1-19-19v-142a19 19 0 0 1 19-19h1a19 19 0 0 1 19 19v85l70-95a19 19 0 0 1 2-2h0a16 16 0 0 1 7-6 19 19 0 0 1 7-1h2a19 19 0 0 1 9 2 14 14 0 0 1 4 4z m-188-6h2a19 19 0 0 1 19 19v142a19 19 0 0 1-19 19h-2a19 19 0 0 1-19-19v-142a19 19 0 0 1 19-19z" horiz-adv-x="1000" />

<glyph glyph-name="link" unicode="&#xe83a;" d="M268-150a268 268 0 0 0-189 458l51 51a267 267 0 0 0 204 78 50 50 0 0 0-6-100 167 167 0 0 1-128-48l-51-51a169 169 0 1 1 239-239l51 51a168 168 0 0 1 49 128 50 50 0 1 0 99 6 267 267 0 0 0-77-204l-52-51a267 267 0 0 0-190-79z m414 413q-8 0-16 0a50 50 0 0 0 6 100 168 168 0 0 1 128 48l51 52a169 169 0 1 1-239 238l-51-51a167 167 0 0 1-49-128 50 50 0 0 0-99-6 267 267 0 0 0 78 204l51 51a268 268 0 0 0 379-379l-51-51a267 267 0 0 0-188-78z m-362-143a50 50 0 0 0-35 85l360 361a50 50 0 0 0 70-71l-360-360a50 50 0 0 0-35-15z" horiz-adv-x="1000" />

<glyph glyph-name="linkedin" unicode="&#xe83b;" d="M0 734a109 109 0 0 0 36 83 130 130 0 0 0 92 33 127 127 0 0 0 90-32 114 114 0 0 0 35-87 106 106 0 0 0-34-81 131 131 0 0 0-93-33h-1a124 124 0 0 0-90 33 112 112 0 0 0-35 84z m13-884v675h225v-675z m350 0h225v377a145 145 0 0 0 8 54 146 146 0 0 0 43 58 110 110 0 0 0 73 24q113 0 113-152v-361h225v387a324 324 0 0 1-71 227 242 242 0 0 1-187 77 230 230 0 0 1-204-112v-2h-1l1 2v96h-225q2-33 2-201t-2-474z" horiz-adv-x="1050" />

<glyph glyph-name="mark" unicode="&#xe83c;" d="M420 850a405 405 0 0 0 308-126 459 459 0 0 0 111-317 489 489 0 0 0-52-219 666 666 0 0 0-118-164 949 949 0 0 0-216-166 69 69 0 0 0-67 0 947 947 0 0 0-215 166 666 666 0 0 0-118 164 489 489 0 0 0-53 219 459 459 0 0 0 111 317 405 405 0 0 0 309 126z m0-906c75 43 329 209 329 463a370 370 0 0 1-88 256 317 317 0 0 1-241 96 317 317 0 0 1-242-96 370 370 0 0 1-87-256c0-254 254-420 329-463z m0 254a233 233 0 1 0 164 68 231 231 0 0 0-164-68z m0 374a142 142 0 1 1 100-41 141 141 0 0 1-100 41z" horiz-adv-x="839" />

<glyph glyph-name="medium" unicode="&#xe83d;" d="M1263 703h-50a57 57 0 0 1-45-44v-621a53 53 0 0 1 45-41h50v-147h-452v147h94v653h-4l-222-800h-171l-218 800h-6v-653h95v-147h-379v147h49a53 53 0 0 1 46 41v621a57 57 0 0 1-46 44h-49v147h474l156-579h4l157 579h472z" horiz-adv-x="1263" />

<glyph glyph-name="megaphone" unicode="&#xe83e;" d="M48 173a48 48 0 0 0-48 48v258a48 48 0 0 0 97 0v-258a48 48 0 0 0-49-48z m968-323a48 48 0 0 0-48 48v904a48 48 0 0 0 97 0v-904a48 48 0 0 0-49-48z m-968 516a48 48 0 0 0-15 94l968 323a48 48 0 1 0 30-92l-967-322a48 48 0 0 0-16-3z m968-452a48 48 0 0 0-15 3l-968 323a48 48 0 1 0 31 91l967-322a48 48 0 0 0-15-95z m-491-21a337 337 0 0 0-337 327q0 0 0 1v2a48 48 0 0 0 97 0v-1a240 240 0 0 1 429-141 48 48 0 1 0 76-60 338 338 0 0 0-265-128z" horiz-adv-x="1064" />

<glyph glyph-name="message" unicode="&#xe83f;" d="M227-150a46 46 0 0 0-45 45v137h-76a106 106 0 0 0-106 106v606a106 106 0 0 0 106 106h788a106 106 0 0 0 106-106v-606a106 106 0 0 0-106-106h-409l-230-173a46 46 0 0 0-28-9z m-121 909a15 15 0 0 1-15-15v-606a15 15 0 0 1 5-11 15 15 0 0 1 10-4h121a46 46 0 0 0 46-46v-91l169 128a46 46 0 0 0 28 9h424a15 15 0 0 1 15 15v606a15 15 0 0 1-4 11 15 15 0 0 1-11 4z" horiz-adv-x="1000" />

<glyph glyph-name="messenger" unicode="&#xe840;" d="M0 365c0 279 219 485 501 485s500-206 500-485-218-485-500-485a545 545 0 0 0-145 19 40 40 0 0 1-27-2l-99-44a40 40 0 0 0-56 36l-3 89a40 40 0 0 1-14 28 474 474 0 0 0-157 359z m347 91l-147-233a24 24 0 0 1 34-31l158 119a30 30 0 0 0 37 0l117-87a75 75 0 0 1 108 20l147 233a24 24 0 0 1-34 31l-158-119a30 30 0 0 0-36 0l-117 87a75 75 0 0 1-109-20z" horiz-adv-x="1001" />

<glyph glyph-name="mobile" unicode="&#xe841;" d="M159 850h341a159 159 0 0 0 159-159v-682a159 159 0 0 0-159-159h-341a159 159 0 0 0-159 159v682a159 159 0 0 0 159 159z m341-909a68 68 0 0 1 68 68v682a68 68 0 0 1-68 68h-341a68 68 0 0 1-68-68v-682a68 68 0 0 1 68-68z m-103 98h-134a46 46 0 0 0-46 45 46 46 0 0 0 46 46h134a46 46 0 0 0 45-46 46 46 0 0 0-45-45z" horiz-adv-x="659" />

<glyph glyph-name="password" unicode="&#xe842;" d="M159 509h455a159 159 0 0 0 159-159v-341a159 159 0 0 0-159-159h-455a159 159 0 0 0-159 159v341a159 159 0 0 0 159 159z m455-568a68 68 0 0 1 68 68v341a68 68 0 0 1-68 68h-455a68 68 0 0 1-68-68v-341a68 68 0 0 1 68-68z m-228 909a273 273 0 0 0 273-273v-113a46 46 0 0 0-45-46h-455a46 46 0 0 0-45 46v113a273 273 0 0 0 272 273z m182-341v68a182 182 0 0 1-363 0v-68z" horiz-adv-x="773" />

<glyph glyph-name="pen" unicode="&#xe843;" d="M308-150a46 46 0 0 0-32 13c-8 8-24 24-146 261-60 114-116 225-116 226s-1 3-2 4a167 167 0 0 0 6 136 46 46 0 0 0 2 4l97 153a46 46 0 0 0 38 21h303a46 46 0 0 0 39-21l97-153a46 46 0 0 0 2-4 167 167 0 0 0 5-136q0-2-1-3c-1-1-56-113-114-227-122-237-137-252-146-261a46 46 0 0 0-32-13z m-212 540c78-156 164-323 212-408 47 85 133 252 210 407a76 76 0 0 1-3 59l-82 129h-253l-82-129a76 76 0 0 1-2-58z m211-430a46 46 0 0 0-46 46v253a46 46 0 0 0 91 0v-254a46 46 0 0 0-45-45z m151 617h-303a46 46 0 0 0-42 29l-50 127a76 76 0 0 0 63 117h364a76 76 0 0 0 63-118l-53-127a46 46 0 0 0-42-28z m-272 91h242l38 91h-316z" horiz-adv-x="613" />

<glyph glyph-name="pencil-writing" unicode="&#xe844;" d="M362 197a46 46 0 0 0-45 52l22 150a46 46 0 0 0 12 25l386 386a136 136 0 1 0 193-193l-386-385a46 46 0 0 0-26-13l-150-22a46 46 0 0 0-6 0z m64 174l-10-75 75 11 374 375a46 46 0 0 1-64 64z m286-521h-606a106 106 0 0 0-106 106v606a106 106 0 0 0 106 106h303a46 46 0 0 0 0-91h-303a15 15 0 0 1-15-15v-606a15 15 0 0 1 15-15h606a15 15 0 0 1 15 15v303a46 46 0 0 0 91 0v-303a106 106 0 0 0-106-106z" horiz-adv-x="970" />

<glyph glyph-name="pencil" unicode="&#xe845;" d="M808 850a192 192 0 0 0 134-329l-585-586a46 46 0 0 0-21-12l-279-72a46 46 0 0 0-56 56l72 279a46 46 0 0 0 12 21l586 585a193 193 0 0 0 136 58z m-507-842l577 577 1 0a101 101 0 0 1-71 174h-1a102 102 0 0 1-72-31l0 0-577-577-49-192z m593 483a46 46 0 0 0-33 13l-207 207a46 46 0 1 0 64 65l208-208a46 46 0 0 0-32-77z m-569-569a46 46 0 0 0-32 13l-208 207a46 46 0 0 0 64 65l208-208a46 46 0 0 0-32-77z" horiz-adv-x="1000" />

<glyph glyph-name="phone" unicode="&#xe846;" d="M743-150h0a269 269 0 0 0-144 42l-2 1 0 0a2054 2054 0 0 0-554 554l-1 2h0a269 269 0 0 0 37 335l31 31a120 120 0 0 0 170 0l132-132a120 120 0 0 0 0-170 29 29 0 0 1 0-41l210-210a29 29 0 0 1 41 0 120 120 0 0 0 170 0l132-132a120 120 0 0 0 0-170l-31-31a269 269 0 0 0-191-79z m-94 118a178 178 0 0 1 94-27 193 193 0 0 1 20 1 179 179 0 0 1 106 51l32 31a29 29 0 0 1 0 41l-132 132a29 29 0 0 1-41 0 120 120 0 0 0-170 0l-211 211a120 120 0 0 0 0 170 29 29 0 0 1 0 41l-131 132a29 29 0 0 1-41 0l-32-32a178 178 0 0 1-24-221l0-1a1963 1963 0 0 1 529-529z" horiz-adv-x="1000" />

<glyph glyph-name="pinterest" unicode="&#xe847;" d="M0 491a315 315 0 0 0 27 125 397 397 0 0 0 76 115 363 363 0 0 0 130 86 467 467 0 0 0 178 33 361 361 0 0 0 261-98 310 310 0 0 0 102-231 447 447 0 0 0-87-282 270 270 0 0 0-223-112 177 177 0 0 0-84 21 129 129 0 0 0-56 51l-40-158a307 307 0 0 0-13-38c-5-13-11-26-17-38s-13-23-19-34-13-21-19-30-12-17-17-23-9-12-13-17l-6-8a7 7 0 0 0-8-3 7 7 0 0 0-6 6c0 1 0 5-1 14s-2 18-3 28-2 22-3 37-2 30-1 45 1 30 3 47a397 397 0 0 0 7 48q11 47 74 313a168 168 0 0 0-13 39 179 179 0 0 0-5 36l-1 15a170 170 0 0 0 32 107 96 96 0 0 0 79 42 71 71 0 0 0 57-24 92 92 0 0 0 21-62 235 235 0 0 0-9-56q-8-34-22-77t-20-71a86 86 0 0 1 17-78 91 91 0 0 1 74-33 150 150 0 0 1 130 90 428 428 0 0 1 52 216 212 212 0 0 1-63 158 241 241 0 0 1-176 62 272 272 0 0 1-205-81 269 269 0 0 1-78-194 172 172 0 0 1 38-113 33 33 0 0 0 8-32 207 207 0 0 1-6-23 207 207 0 0 0-6-23 18 18 0 0 0-10-14 23 23 0 0 0-18 0 167 167 0 0 0-88 83 299 299 0 0 0-30 136z" horiz-adv-x="774" />

<glyph glyph-name="play" unicode="&#xe848;" d="M161-150a161 161 0 0 0-161 160v679a160 160 0 0 0 247 136l531-340a160 160 0 0 0 0-270l-531-340a160 160 0 0 0-86-25z m0 893a54 54 0 0 1-54-54v-679a54 54 0 0 1 54-53 52 52 0 0 1 28 8l531 340a54 54 0 0 1 0 90l-531 340a52 52 0 0 1-28 8z" horiz-adv-x="852" />

<glyph glyph-name="product-hunt" unicode="&#xe849;" d="M500-150a500 500 0 1 1-500 500 500 500 0 0 1 500-500z m-75 500h142a75 75 0 0 1 0 150h-142z m-100 250h242a175 175 0 0 0 0-350h-142v-150h-100z" horiz-adv-x="1000" />

<glyph glyph-name="report" unicode="&#xe84b;" d="M833-150h-727a106 106 0 0 0-106 106v788a106 106 0 0 0 106 106h606a106 106 0 0 0 74-30l121-116 0 0a106 106 0 0 0 32-76l0-672a106 106 0 0 0-106-106z m-727 909a15 15 0 0 1-15-15v-788a15 15 0 0 1 15-15h727a15 15 0 0 1 16 15l0 672a15 15 0 0 1-5 10l-121 117 0 0a15 15 0 0 1-11 4z m606-727h-485a46 46 0 0 0-45 45v455a46 46 0 1 0 91 0v-409h439a46 46 0 0 0 0-91z m-485 121a46 46 0 0 0-31 79l136 127 1 0a125 125 0 0 0 168 0l0 0 29-28a33 33 0 0 1 13-7 34 34 0 0 1 14-1l1 0a31 31 0 0 1 22 13l63 99a46 46 0 1 0 77-49l-64-99 0 0a122 122 0 0 0-89-54 125 125 0 0 0-52 5 124 124 0 0 0-46 27l-1 0-29 27a34 34 0 0 1-45 0l-136-127a46 46 0 0 0-31-12z" horiz-adv-x="939" />

<glyph glyph-name="search" unicode="&#xe84c;" d="M450-49a450 450 0 1 0 449 450 450 450 0 0 0-449-450z m0 808a359 359 0 1 1 358-358 359 359 0 0 1-358 358z m505-909a46 46 0 0 0-33 13l-219 220a46 46 0 1 0 64 64l220-220a46 46 0 0 0-32-77z" horiz-adv-x="1000" />

<glyph glyph-name="send" unicode="&#xe84d;" d="M923 850a76 76 0 0 0 73-100l0 0-269-827 0 0a107 107 0 0 0-40-54 106 106 0 0 0-64-19 107 107 0 0 0-100 78l-1 1-79 330a46 46 0 0 1-34 34l-330 79-1 1a107 107 0 0 0-78 100 106 106 0 0 0 19 64 107 107 0 0 0 54 40l0 0 827 269a76 76 0 0 0 23 4z m-283-899l261 800-799-261a16 16 0 0 1-11-15 16 16 0 0 1 11-15l328-78a136 136 0 0 0 101-101l79-329a16 16 0 0 1 15-11h0a16 16 0 0 1 9 3 16 16 0 0 1 6 7z m-166 328a46 46 0 0 0-32 78l471 471a46 46 0 0 0 64-64l-471-472a46 46 0 0 0-32-13z" horiz-adv-x="1000" />

<glyph glyph-name="settings" unicode="&#xe84e;" d="M103 850h794a103 103 0 0 0 103-103v-794a103 103 0 0 0-103-103h-794a103 103 0 0 0-103 103v794a103 103 0 0 0 103 103z m794-917a20 20 0 0 1 20 20v794a20 20 0 0 1-20 20h-794a20 20 0 0 1-20-20v-794a20 20 0 0 1 20-20z m-122 223h-234a42 42 0 1 0 0 83h234a42 42 0 1 0 0-83z m-438 0h-112a42 42 0 0 0 0 83h112a42 42 0 1 0 0-83z m102 185a144 144 0 1 0-80-24 143 143 0 0 0 80 24z m0-204a60 60 0 1 1-12 1 60 60 0 0 1 12-1z m143 324h-357a42 42 0 0 0 0 84h357a42 42 0 0 0 0-84z m101-102a144 144 0 1 0 102 42 143 143 0 0 0-102-42z m0 204a60 60 0 1 1 23-5 60 60 0 0 1-23 5z" horiz-adv-x="1000" />

<glyph glyph-name="share" unicode="&#xe84f;" d="M222 163a222 222 0 1 0 157 65 221 221 0 0 0-157-65z m0 347a125 125 0 1 1 89-37 124 124 0 0 1-89 37z m625-104a222 222 0 1 0 157 65 221 221 0 0 0-157-65z m0 347a125 125 0 1 1 89-37 124 124 0 0 1-89 37z m0-459a222 222 0 1 0-157-65 221 221 0 0 0 157 65z m0-347a125 125 0 1 1-88 37 124 124 0 0 1 88-37z m-463 452a49 49 0 0 0-18 94l302 117a49 49 0 1 0 35-90l-301-118a49 49 0 0 0-18-3z m308-298a49 49 0 0 0-22 5l-314 158a49 49 0 1 0 43 87l315-158a49 49 0 0 0-22-92z" horiz-adv-x="1069" />

<glyph glyph-name="skype" unicode="&#xe850;" d="M963 268a438 438 0 0 1 7 82 470 470 0 0 1-470 470 438 438 0 0 1-82-6 280 280 0 0 1-418-244 276 276 0 0 1 37-138 438 438 0 0 1-7-82 470 470 0 0 1 470-470 438 438 0 0 1 82 7 280 280 0 0 1 381 382z m-548 471l-1 1 2 0c0 0-1 0-1-1z m65-321l105-23c117-27 147-93 148-160 0-100-76-177-230-177-160 0-233 82-233 142a53 53 0 0 0 55 52c29 0 42-18 58-39a129 129 0 0 1 120-63c65 0 104 40 104 77 0 21-14 46-57 56l-143 37c-115 30-135 93-135 151 0 124 113 167 220 167 100 0 217-55 217-128a51 51 0 0 0-57-48 66 66 0 0 0-51 30 133 133 0 0 1-116 51c-58 0-90-26-90-65s45-50 85-60z" horiz-adv-x="1000" />

<glyph glyph-name="snapchat" unicode="&#xe851;" d="M1054 84c-152 26-221 182-223 188l-1 1a57 57 0 0 0-5 48c10 24 44 35 66 42 6 2 11 3 15 5 41 16 49 32 49 44a35 35 0 0 1-26 28l-1 0a50 50 0 0 1-19 4 40 40 0 0 1-17-3 135 135 0 0 0-51-15 44 44 0 0 0-28 10l2 28 0 4a538 538 0 0 1-13 214 280 280 0 0 1-259 168l-22-1a279 279 0 0 1-258-166 537 537 0 0 1-13-215q1-16 2-32a45 45 0 0 0-32-9 131 131 0 0 0-53 14 31 31 0 0 1-14 3 44 44 0 0 1-43-29c-4-23 29-39 49-47 4-2 9-4 15-5 22-7 56-18 66-42a57 57 0 0 0-5-48l0-1a374 374 0 0 0-57-88 278 278 0 0 0-167-100 13 13 0 0 1-11-13 20 20 0 0 1 2-7c9-22 56-40 136-52 7-1 10-14 15-33 1-8 3-17 6-25a16 16 0 0 1 17-12 133 133 0 0 1 22 3 294 294 0 0 0 60 7 264 264 0 0 0 43-4 207 207 0 0 0 82-42 237 237 0 0 1 143-56c2 0 4 0 5 0s5 0 8 0a237 237 0 0 1 144 56 206 206 0 0 0 81 42 265 265 0 0 0 43 4 298 298 0 0 0 60-7 128 128 0 0 1 23-2h1a15 15 0 0 1 16 11q3 12 6 25c4 20 7 32 15 33 79 12 126 30 135 52a20 20 0 0 1 2 7 13 13 0 0 1-10 13z" horiz-adv-x="1065" />

<glyph glyph-name="soudcloud" unicode="&#xe852;" d="M0 30a58 58 0 0 1 24-51 67 67 0 0 1 53-12 59 59 0 0 1 36 18 73 73 0 0 1 11 45v243a60 60 0 0 1-18 44 60 60 0 0 1-44 18 62 62 0 0 1-62-62z m194-105a42 42 0 0 1 17-36 75 75 0 0 1 44-12 77 77 0 0 1 45 12 42 42 0 0 1 18 36v568a59 59 0 0 1-18 43 60 60 0 0 1-44 18 59 59 0 0 1-44-18 59 59 0 0 1-18-43v-568z m193-26a41 41 0 0 1 18-37 79 79 0 0 1 45-12 75 75 0 0 1 44 12 42 42 0 0 1 18 37v517a61 61 0 0 1-18 45 59 59 0 0 1-44 18 61 61 0 0 1-44-18 61 61 0 0 1-19-45v-517z m194-3q0-46 63-46t62 46v839q0 71-43 80a61 61 0 0 1-55-16 79 79 0 0 1-27-64v-839z m198-24v913q0 43 26 52a484 484 0 0 0 112 13 502 502 0 0 0 420-225 490 490 0 0 0 80-230 287 287 0 0 0 312-62 281 281 0 0 0 0-400 276 276 0 0 0-202-83l-733 1a20 20 0 0 0-12 9 25 25 0 0 0-3 12z" horiz-adv-x="1813" />

<glyph glyph-name="spotify" unicode="&#xe853;" d="M500 850a500 500 0 1 1 500-500 500 500 0 0 1-500 500z m229-721a31 31 0 0 0-42-10c-118 71-266 87-440 48a31 31 0 0 0-14 60c191 44 354 25 486-55a31 31 0 0 0 11-43z m62 136a39 39 0 0 0-54-13 656 656 0 0 1-498 59 39 39 0 1 0-23 74 729 729 0 0 0 562-66 39 39 0 0 0 13-54z m5 142c-161 96-427 104-581 58a47 47 0 1 0-27 89c176 54 470 43 656-67a47 47 0 0 0-48-80z" horiz-adv-x="1000" />

<glyph glyph-name="star" unicode="&#xe854;" d="M524 850a89 89 0 0 0 80-49l113-229 254-37a89 89 0 0 0 50-152l-184-178 43-251a88 88 0 0 0-19-72 89 89 0 0 0-110-22l-227 119-228-119a89 89 0 0 0-109 22 88 88 0 0 0-20 72l44 251-184 178a89 89 0 0 0 49 152l254 37 114 229a89 89 0 0 0 80 49z m430-405l-273 40a46 46 0 0 0-35 25l-122 247-123-247a46 46 0 0 0-34-25l-273-40 197-191a46 46 0 0 0 13-40l-46-271 245 128a46 46 0 0 0 42 0l245-128-47 271a46 46 0 0 0 13 40z" horiz-adv-x="1048" />

<glyph glyph-name="support" unicode="&#xe855;" d="M197 62h-30a167 167 0 0 0-167 167v121a167 167 0 0 0 167 167h30a76 76 0 0 0 76-76v-303a76 76 0 0 0-76-76z m-30 364a76 76 0 0 1-76-76v-121a76 76 0 0 1 76-76h15v273z m666-364h-30a76 76 0 0 0-76 76v303a76 76 0 0 0 76 76h30a167 167 0 0 0 167-167v-121a167 167 0 0 0-167-167z m-15 91h15a76 76 0 0 1 76 76v121a76 76 0 0 1-76 76h-15z m15 273a46 46 0 0 0-45 45 288 288 0 1 1-576 0 46 46 0 1 0-91 0 379 379 0 1 0 758 0 46 46 0 0 0-46-45z m-121-515h-91a46 46 0 0 0 0 91h91a76 76 0 0 1 76 75v30a46 46 0 0 0 91 0v-30a167 167 0 0 0-167-167z m-151-61h-61a106 106 0 1 0 0 212h61a106 106 0 1 0 0-212z m-61 121a15 15 0 0 1-11-4 15 15 0 0 1 0-22 15 15 0 0 1 11-4h61a15 15 0 0 1 10 4 15 15 0 0 1 0 22 15 15 0 0 1-10 4z" horiz-adv-x="1000" />

<glyph glyph-name="sync" unicode="&#xe856;" d="M259-12h-207a52 52 0 0 0 0 104h155v155a52 52 0 0 0 103 0v-207a52 52 0 0 0-51-52z m621 414a52 52 0 0 0-52 52v207a52 52 0 0 0 52 51h207a52 52 0 0 0 0-103h-156v-155a52 52 0 0 0-51-52z m-311-552a501 501 0 0 0-192 38 52 52 0 1 0 39 96 397 397 0 0 1 439 641 52 52 0 0 0 75 72 500 500 0 0 0-361-847z m-323 138a52 52 0 0 0-38 16 500 500 0 0 0 554 808 52 52 0 1 0-40-96 397 397 0 0 1-439-640 52 52 0 0 0-37-88z" horiz-adv-x="1138" />

<glyph glyph-name="tag" unicode="&#xe857;" d="M120 850h305a119 119 0 0 0 84-35l456-456a120 120 0 0 0-43-197l-170-64-64-170a120 120 0 0 0-198-43l-455 456a120 120 0 0 0-35 85v304a120 120 0 0 0 120 120z m455-909a29 29 0 0 1 28 19l71 189a46 46 0 0 0 27 27l189 71a29 29 0 0 1 11 48l-456 456a29 29 0 0 1-20 8h-305a29 29 0 0 1-29-29v-304a29 29 0 0 1 8-21l456-456a29 29 0 0 1 20-8z m-306 576a70 70 0 0 0-12 1 64 64 0 1 0 12-1z" horiz-adv-x="1000" />

<glyph glyph-name="telegram" unicode="&#xe858;" d="M74 415s535 219 721 296c71 31 312 130 312 130s111 44 102-62c-3-43-28-194-53-358-37-232-77-486-77-486s-6-71-59-83-139 43-154 55c-13 10-232 149-313 217a59 59 0 0 0 4 99c111 102 244 229 324 309 37 37 74 124-80 19-220-152-436-294-436-294a182 182 0 0 0-142-3c-93 28-201 65-201 65s-75 46 52 96z" horiz-adv-x="1209" />

<glyph glyph-name="test" unicode="&#xe859;" d="M773-150h-667a106 106 0 0 0-106 106v788a106 106 0 0 0 106 106h430a105 105 0 0 0 75-31l237-237a105 105 0 0 0 31-75v-551a106 106 0 0 0-106-106z m-667 909a15 15 0 0 1-15-15v-788a15 15 0 0 1 15-15h667a15 15 0 0 1 11 5 15 15 0 0 1 4 10v551a15 15 0 0 1-4 10l-238 238a15 15 0 0 1-10 4z m159-411a76 76 0 0 0-53 22l-47 47a46 46 0 0 0 64 64l35-34 75 101a46 46 0 0 0 73-55l-86-114a76 76 0 0 0-56-30q-2-1-5-1z m0-272a76 76 0 0 0-53 22l-47 47a46 46 0 1 0 64 64l35-35 75 101a46 46 0 1 0 73-54l-86-115a76 76 0 0 0-56-30q-2 0-5 0z m417 272h-182a46 46 0 0 0 0 91h182a46 46 0 0 0 0-91z m0-242h-182a46 46 0 0 0 0 91h182a46 46 0 1 0 0-91z" horiz-adv-x="879" />

<glyph glyph-name="tiktok" unicode="&#xe85a;" d="M878 600a252 252 0 0 0-152 51 252 252 0 0 0-101 199h-163v-446l0-244a148 148 0 0 0-101-140 146 146 0 0 0-55-8 148 148 0 0 0 8 296 153 153 0 0 0 47-8v166a316 316 0 0 1-283-102 307 307 0 0 1 14-423 336 336 0 0 1 29-26 316 316 0 0 1 414 26 306 306 0 0 1 91 217l0 365a409 409 0 0 1 91-53 412 412 0 0 1 161-33v163s0 0 0 0z" horiz-adv-x="879" />

<glyph glyph-name="tumblr" unicode="&#xe85c;" d="M31 697c-31-59-31-138-31-294v-106c0-156 0-234 31-294a280 280 0 0 1 122-122c60-31 138-31 294-31h78c156 0 235 0 295 31a280 280 0 0 1 122 122c30 60 30 138 30 295v105c0 156 0 235-30 294a280 280 0 0 1-122 123c-60 30-139 30-295 30h-78c-156 0-234 0-294-30a280 280 0 0 1-122-123z m555-535a146 146 0 0 1 51 11l30-91a166 166 0 0 0-109-37 172 172 0 0 0-189 170v209h-63v82a195 195 0 0 1 123 173 5 5 0 0 0 5 4h92v-162h125v-97h-126v-199c1-27 11-64 61-63z" horiz-adv-x="972" />

<glyph glyph-name="twitch" unicode="&#xe85d;" d="M500-19h195l261 261v608h-891l-65-174v-695h239v-131h130z m369 782v-478l-152-152h-239l-130-131v131h-196v630z m-239-435v261h87v-261z m-152 0h-87v261h87z" horiz-adv-x="956" />

<glyph glyph-name="twitter" unicode="&#xe85e;" d="M824 850v0h58l21-4a226 226 0 0 0 38-11 273 273 0 0 0 33-16 318 318 0 0 0 30-18 180 180 0 0 0 23-19 32 32 0 0 1 32-6 428 428 0 0 1 46 14q25 9 50 20t30 14l5 4 0 0 1 1 1 0 2 1 1 0 0 1 0 0 0 0 0 0 1 0 2 0 0-1-1-2 0-2-1-1 0-2-1-1-1-1a38 38 0 0 1-1-5 186 186 0 0 0-10-22 278 278 0 0 0-25-39 194 194 0 0 0-27-31q-12-10-16-14a48 48 0 0 0-10-8l-5-3-1-1-1-1 0 0-1 0 0 0 0 0-1-1-1 0 0-1 0 0-1 0 0 0 0 0 0 0 0 0 0-1h5l31 7a557 557 0 0 1 59 16l30 10 3 1 2 1 1 0 1 1 1 0 1 1 2 0 3 0v-2l-1 0-1 0 0-1 0 0 0 0 0 0 0 0-1 0 0 0 0-1 0 0 0 0-1-1 0-1-1 0-14-19a156 156 0 0 0-15-19q-1 0-3-3a318 318 0 0 0-23-25 559 559 0 0 0-43-38 53 53 0 0 1-21-42q0-25-3-56t-8-67a799 799 0 0 0-19-82 741 741 0 0 0-31-88 691 691 0 0 0-38-78q-20-34-37-58t-34-45q-17-21-43-48t-29-29q-3-2-22-18t-41-32a477 477 0 0 0-40-26q-19-10-45-24a525 525 0 0 0-56-25q-30-12-63-22a578 578 0 0 0-64-15q-32-6-71-10l-39-4v0h-73v0l-9 1q-9 0-16 1t-46 6q-40 6-62 11t-68 21a659 659 0 0 0-77 32q-32 15-40 20t-19 8l-10 6 0 0-1 0 0 0 0 1-1 0-1 1 0 0-1 0 0 0 0 1 0 0 0 0h-2v2l1 0 1 0 5-1q5 0 28-1t47 0a499 499 0 0 1 51 5 576 576 0 0 1 62 13 457 457 0 0 1 65 22q30 13 42 20a411 411 0 0 1 38 23l26 17 0 1 0 0 0 0 0 0 0 0 1 0 0 0 0 1 1 0 1 0 0 1 1 1 0 0 0 1-9 0-17 1a168 168 0 0 0-26 5 251 251 0 0 0-39 13 296 296 0 0 0-40 22 197 197 0 0 0-28 20q-8 8-22 22a225 225 0 0 0-23 31 272 272 0 0 0-18 38l-10 20 0 2-1 2 0 1 0 1 2 0 1 0 13-2a272 272 0 0 1 38-1 298 298 0 0 1 36 2q10 2 12 2l3 1 2 0 3 1 0 0 0 0 1 0 0 1-2 0-3 1-2 0-2 1-2 0q-3 1-8 3t-30 12a230 230 0 0 0-39 20 269 269 0 0 0-28 22 315 315 0 0 0-28 31 222 222 0 0 0-28 44 266 266 0 0 0-18 48 257 257 0 0 0-8 46l-2 23 1 0 1 0 1-1 1-1 1 0 1-1 18-7a218 218 0 0 1 42-14q26-5 31-6l5 0h10l0 0 0 0-1 0 0 0 0 1 0 0 0 0 0 0-1 1-2 0 0 0 0 0 0 0 0 1-1 0-1 1 0 0-10 7a146 146 0 0 0-19 18q-10 11-20 24a180 180 0 0 0-18 26 316 316 0 0 0-17 35 250 250 0 0 0-13 43 244 244 0 0 0-5 43 269 269 0 0 0 2 36 235 235 0 0 0 6 34 264 264 0 0 0 15 40l9 21 1 1 0 2 1 0 0 0 0 1 0 0 0 0 0-1 0 0 1 0 0 0 0 0 0-1 0 0 1-1 0-1 1 0 0 0 15-17q15-16 35-37a209 209 0 0 1 23-21 16 16 0 0 0 6-5 227 227 0 0 1 22-20q19-16 49-36t68-41a662 662 0 0 1 80-36q43-16 60-21t59-13q42-7 63-10t29-2l7 0 0 2 0 1-2 14a260 260 0 0 0-2 39 255 255 0 0 0 4 46 273 273 0 0 0 11 43 229 229 0 0 0 15 34 342 342 0 0 0 20 30 239 239 0 0 0 32 35 234 234 0 0 0 44 32 289 289 0 0 0 47 21 215 215 0 0 0 35 9 124 124 0 0 1 15 3z" horiz-adv-x="1233" />

<glyph glyph-name="user" unicode="&#xe85f;" d="M841-150a46 46 0 0 0-45 45v57a352 352 0 0 1-705 0v-57a46 46 0 0 0-91 0v57a443 443 0 0 0 886 0v-57a46 46 0 0 0-45-45z m-398 454a273 273 0 0 0-193 466 273 273 0 1 0 386-385 271 271 0 0 0-193-81z m0 455a182 182 0 1 1 129-53 181 181 0 0 1-129 53z" horiz-adv-x="886" />

<glyph glyph-name="video-camera" unicode="&#xe860;" d="M262 850h571a262 262 0 0 0 262-262v-476a262 262 0 0 0-262-262h-571a262 262 0 0 0-262 262v476a262 262 0 0 0 262 262z m571-857a119 119 0 0 1 119 119v476a119 119 0 0 1-119 119h-571a119 119 0 0 1-119-119v-476a119 119 0 0 1 119-119z m619-18a120 120 0 0 0-53 12l-217 108a71 71 0 1 0 64 128l183-91v436l-183-91a71 71 0 1 0-64 128l217 108a119 119 0 0 0 172-107v-512a119 119 0 0 0-113-119z" horiz-adv-x="1571" />

<glyph glyph-name="vk" unicode="&#xe861;" d="M654 850h-307c-280 0-347-67-347-346v-307c0-280 66-347 346-347h307c280 0 347 66 347 346v307c0 280-66 347-346 347z m143-318c22 0 26-11 22-26a825 825 0 0 0-95-164c-2-3-3-5-3-5-8-12-11-18 0-32a198 198 0 0 1 22-23c9-9 20-20 28-30a324 324 0 0 0 61-85c7-20-4-31-25-31h-73c-19 0-29 11-50 35-9 10-20 22-35 37-43 42-61 47-72 47-16 0-20-4-20-25v-66c0-17-5-28-52-28a285 285 0 0 0-222 134 581 581 0 0 0-115 241c0 11 4 21 25 21h73c18 0 25-8 32-27 36-104 96-195 121-195 9 0 13 4 13 28v107a83 83 0 0 1-20 53 29 29 0 0 0-9 18 18 18 0 0 0 19 16h115c15 0 20-8 20-26v-145c0-16 7-21 12-21 9 0 16 5 34 22a600 600 0 0 1 89 149 32 32 0 0 0 32 21z" horiz-adv-x="1000" />

<glyph glyph-name="wallet" unicode="&#xe862;" d="M593-150a138 138 0 0 0-37 5l-406 110-1 1a212 212 0 0 0-149 198q0 0 0 0v514a168 168 0 0 0 43 116q1 1 2 2l2 1a168 168 0 0 0 117 53h622a180 180 0 0 0 180-180v-402s0 0 0 0a183 183 0 0 0-185-182h-51v-88a138 138 0 0 0-137-148z m-418 203l405-110 1 0a47 47 0 0 1 59 49q0 2 0 4v471a124 124 0 0 1-84 114l-459 131a78 78 0 0 1-6-33q0 0 0-1v-513a121 121 0 0 1 84-112z m555 124h53a93 93 0 0 1 92 92v401a89 89 0 0 1-89 89h-524l319-91 2 0a215 215 0 0 0 147-199q0-1 0-1z m-230 44a62 62 0 1 0 12 1 62 62 0 0 0-12-1z" horiz-adv-x="966" />

<glyph glyph-name="web" unicode="&#xe863;" d="M500-150h0a500 500 0 1 0 278 84 498 498 0 0 0-278-84z m0 909a409 409 0 1 1 0-818v0a409 409 0 0 1 0 818z m419-597h-851a46 46 0 1 0 0 91h851a46 46 0 0 0 0-91z m0 285h-851a46 46 0 1 0 0 91h851a46 46 0 0 0 0-91z m-483-593a46 46 0 0 0-42 30 1518 1518 0 0 0-36 922 46 46 0 1 0 88-24 1427 1427 0 0 1 33-867 46 46 0 0 0-43-61z m128 0a46 46 0 0 0-42 61 1412 1412 0 0 1 84 485 1417 1417 0 0 1-52 382 46 46 0 1 0 88 24 1507 1507 0 0 0 55-405 1502 1502 0 0 0-90-517 46 46 0 0 0-43-30z" horiz-adv-x="1000" />

<glyph glyph-name="wechat" unicode="&#xe864;" d="M759 545a349 349 0 0 1-353-345 321 321 0 0 1 12-87 232 232 0 0 0-28-1 428 428 0 0 0-120 18 26 26 0 0 1-26-4l-115-79c-7-4-15 4-13 12l30 119a22 22 0 0 1-7 21 362 362 0 0 0-139 282 380 380 0 0 0 390 369 384 384 0 0 0 384-305z m-185 50a57 57 0 0 1-53 60 57 57 0 0 1-52-60 57 57 0 0 1 52-60 57 57 0 0 1 53 60z m-367 0a57 57 0 0 1 52-60 56 56 0 0 1 52 60 57 57 0 0 1-52 60 57 57 0 0 1-52-60z m548-82a318 318 0 0 0 323-312 309 309 0 0 0-113-239 30 30 0 0 1-10-29l16-73c2-7-5-13-10-9l-80 49a39 39 0 0 1-27 4 307 307 0 0 0-98-15 318 318 0 0 0-323 312 317 317 0 0 0 322 312z m-160-221a45 45 0 1 1 89 0 45 45 0 1 1-89 0z m218 0a48 48 0 0 1 45-50 48 48 0 0 1 44 50 45 45 0 1 1-89 0z" horiz-adv-x="1078" />

<glyph glyph-name="wifi" unicode="&#xe866;" d="M569 229a190 190 0 1 0-134-55 188 188 0 0 0 134 55z m0-276a86 86 0 1 1-61 26 86 86 0 0 1 61-26z m-244 279a52 52 0 0 0-36 88 397 397 0 0 0 560 0 52 52 0 0 0-73-73 293 293 0 0 1-415 0 52 52 0 0 0-36-15z m-146 146a52 52 0 0 0-37 88 604 604 0 0 0 854 0 52 52 0 1 0-73-73 500 500 0 0 1-707 0 52 52 0 0 0-37-15z m907 165a52 52 0 0 0-35 14 707 707 0 0 1-964 0 52 52 0 0 0-71 75 810 810 0 0 0 1106 0 52 52 0 0 0-36-89z" horiz-adv-x="1138" />

<glyph glyph-name="yelp" unicode="&#xe867;" d="M20 369a351 351 0 0 1-18-163 127 127 0 0 1 10-42 36 36 0 0 1 31-20c8 0 13 1 166 50 0 0 68 21 69 21a41 41 0 0 1 29 39 43 43 0 0 1-27 44l-48 19c-165 67-172 69-180 69a36 36 0 0 1-32-18z m368-496a1036 1036 0 0 1 4 170s0 70 0 71a41 41 0 0 1-28 39 45 45 0 0 1-52-11s-33-39-33-39c-116-133-120-139-123-147a32 32 0 0 1-2-14 38 38 0 0 1 9-21 363 363 0 0 1 196-70 35 35 0 0 1 29 22z m261 54a350 350 0 0 1 129 161 35 35 0 0 1-13 34 1119 1119 0 0 1-165 56s-67 22-68 22a45 45 0 0 1-52-66l27-43a1254 1254 0 0 1 105-160 36 36 0 0 1 36-4z m-80 373c174 41 181 43 188 48a35 35 0 0 1 15 33 8 8 0 0 1 0 1 352 352 0 0 1-117 169 37 37 0 0 1-37-2 1064 1064 0 0 1-104-136s-42-56-43-56a40 40 0 0 1 0-49 44 44 0 0 1 47-20 15 15 0 0 0-1-1 526 526 0 0 0 52 13z m-174 141c-3 67-24 368-26 382a36 36 0 0 1-28 25 495 495 0 0 1-246-67 36 36 0 0 1-11-34c5-10 215-335 215-335 31-49 57-42 65-39s34 10 31 67" horiz-adv-x="778" />

<glyph glyph-name="youtube" unicode="&#xe868;" d="M739-149l-291 6a1482 1482 0 0 0-280 17c-140 30-150 173-160 294a2100 2100 0 0 0 18 509 172 172 0 0 0 168 156 9089 9089 0 0 0 941 9 665 665 0 0 0 99-12c161-29 165-191 175-328a1901 1901 0 0 0-14-414c-16-114-46-210-175-219-161-12-318-22-480-18 0 0-1 0-1 0z m-171 288c122 71 241 142 361 212-121 72-240 142-361 212z" horiz-adv-x="1415" />

<glyph glyph-name="reddit" unicode="&#xe869;" d="M983 401c0-10-2-20-4-30-3-9-7-18-12-27-5-8-11-16-19-23-7-6-15-12-24-16 0-3 0-6 1-8 0-6 0-11 0-16-1-3-1-6-1-8 0-162-188-294-421-294-233 0-421 132-421 294-1 2-1 5-1 8 0 5 0 10 0 16 0 2 0 5 1 8-14 6-27 15-36 27-10 12-18 25-22 40-4 15-5 30-2 45 2 15 8 30 16 42 9 13 20 24 33 32 13 8 28 13 43 14 15 2 31 0 45-5 15-4 28-12 39-23 21 14 42 27 65 38 22 11 46 20 69 27 24 8 49 14 73 18 25 4 50 6 75 6l53 251c1 3 2 5 4 8 1 2 3 4 6 6 2 2 5 3 8 3 3 1 6 1 9 0l177-35c18 30 55 44 88 31 34-13 52-48 45-83-7-34-39-59-74-57-36 2-65 29-68 65l-155 32-47-225c25-1 49-3 74-7 48-8 96-23 140-45 22-11 44-23 64-37 15 14 33 24 53 27 20 4 41 2 60-5 19-8 35-21 47-38 11-16 18-36 19-56v0z m-717-100c3-9 9-17 15-24 7-6 15-12 24-15 8-4 18-6 27-6 30 0 56 18 67 45 11 27 5 58-16 78-20 21-51 27-78 16-27-11-45-37-45-67 0-9 2-18 6-27v0z m413-174c4 4 6 9 6 14 0 5-2 10-5 14-4 4-9 6-14 6-5 0-10-2-14-5-11-8-23-15-35-21-12-6-24-10-37-14-13-4-26-7-39-8-14-2-27-2-40-1-14-1-27 0-40 1-13 2-27 5-39 9-13 3-26 8-37 14-12 6-24 13-35 21-3 3-8 5-13 5-5-1-9-3-13-6-3-4-5-8-5-13-1-5 1-10 4-13 13-10 26-18 40-26 14-7 29-13 44-18 16-4 31-8 47-10 16-2 32-3 47-2 16-1 32 0 48 2 32 4 62 14 91 28 14 8 27 16 40 26l-1-3z m-13 123c10 0 20 2 29 6 9 4 17 9 24 16 7 7 12 16 15 25 4 9 6 19 5 29 0 29-18 55-44 66-27 11-59 5-79-15-21-21-27-52-16-79 11-27 38-45 67-45l-1-3z" horiz-adv-x="1000" />

<glyph glyph-name="less" unicode="&#xe86a;" d="M80 357c0 22 18 40 40 40h720c22 0 40-18 40-40 0-22-18-40-40-40h-720c-22 0-40 18-40 40z" horiz-adv-x="960" />

<glyph glyph-name="tools" unicode="&#xe86b;" d="M313 342c17 17 43 17 59 0l119-118c7-8 12-18 12-29 0-11-5-22-12-30l-237-237c0 0 0 0 0 0-24-23-56-36-89-36-33 0-65 13-88 36-24 24-37 56-37 89 0 33 13 65 37 89l236 236z m30-88l-207-207c0 0 0 0 0 0-8-8-13-19-13-30 0-11 5-22 13-30 7-8 18-12 29-12 11 0 22 4 30 12l207 208-59 59z m424 365c16-17 16-43 0-59l-336-336c-16-16-42-16-59 0-16 17-16 43 0 59l336 336c16 16 42 16 59 0z m39 177c17 16 43 16 59 0l79-79c8-7 12-18 12-29 0-11-4-22-12-30l-98-98c-19-19-43-29-69-29-26 0-51 10-69 29-18 18-29 43-29 69 0 26 11 50 29 69l98 98z m30-88l-69-69c0 0 0 0 0 0-3-3-4-7-4-10 0-4 1-8 4-10 2-3 6-4 10-4 3 0 7 1 10 4 0 0 0 0 0 0l69 69-20 20z m-627 75c8 14 24 21 39 20 41-4 80-23 109-52l0 0 0 0c25-25 42-56 49-91 5-25 5-51 0-76l67-68c17-16 17-42 0-58-16-17-42-17-59 0l-85 85c-12 12-15 29-9 45 7 17 8 37 5 55-4 17-12 32-23 45 0-1 0-2 0-3-4-34-19-67-44-91-24-24-56-40-91-44-1 0-2 0-3 0 5-4 9-8 14-11 13-7 28-12 42-13 15-2 30 1 44 6 16 6 33 3 45-9l59-59c16-16 16-42 0-59-17-16-43-16-59 0l-41 41c-18-4-36-5-55-3-27 2-54 11-78 25-24 14-44 34-59 58-14 23-24 50-27 77-1 16 6 32 20 40 13 9 30 9 44 0 13-8 29-12 45-10 15 2 30 9 41 20 11 11 18 26 20 41 2 16-2 32-10 45-9 14-9 31 0 44z m396-457c17 16 43 16 59 0l76-76c31 7 63 5 94-5 40-12 74-38 97-73 22-35 33-76 28-118-4-41-22-80-52-109-29-30-68-48-109-52-42-5-83 5-118 28-35 23-61 57-74 97-9 30-11 63-4 94l-48 48c-17 17-17 43 0 59 16 17 42 17 59 0l66-66c11-11 15-29 9-44-8-21-9-44-2-66 7-21 21-40 39-52 19-12 42-18 64-16 22 3 43 13 59 29 16 16 26 36 28 59 3 22-3 45-15 63-12 19-31 33-52 40-22 7-45 6-66-2-15-6-33-2-44 9l-94 94c-16 16-16 42 0 59z m135-214c-11-10-17-24-17-39 0-15 6-29 17-39 7-8 17-13 28-16 11-2 22-1 32 4 10 4 19 11 25 20 6 9 10 20 10 31 0 11-4 22-10 31-6 9-15 16-25 20-10 5-21 6-32 4-11-3-21-8-28-16z" horiz-adv-x="1000" />
</font>
</defs>
</svg>
